Skip to main content

Club d'Elf Live at Lizard Lounge on 2014-01-17




Club d'Elf
2014-01-17
Lizard Lounge
Cambridge, MA

DPA 4011 > V3 Digital + SBD > R44 (24/96)
SDHC Card > Sound Forge Pro 10.0 (Mix, Normalize, fades, resample iZotope 64-Bit SRC, dither iZotope MBIT+ Dither) > TLH > Flac (level 8)
DIN/DFC/Stage Lip
Tags added in Foobar2000

Taped and Transferred by Brian V.

Set 1

01. Like a Silence
02. Salvia
03. C# Song
04. Wist
05. Africa
06. Pharoah%
07. Us & Them
08. band intros/outro

Set 2

01. Intro
02. Toy for a Boy
03. Hungry Ghosts
04. Softly
05. band intros
06. Love & Peace
07. band intros/outro


Collection ClubdElf
Band/Artist Club d'Elf
Venue Lizard Lounge
Location Cambridge, MA

Source DPA 4011 > V3 Digital + SBD > R44 (24/96)
Lineage SDHC Card > Sound Forge Pro 10.0 (Mix, Normalize, fades, resample iZotope 64-Bit SRC, dither iZotope MBIT+ Dither) > TLH > Flac (level 8)
Taped by Brian V.
Transferred by Brian V.

Notes

% with David Johnston (vocals)

Duke Levine (guitar)
Kevin Barry (lap steel)
Paul Schultheis (Moog, Rhodes, clav)
Mister Rourke (turntables)
Mike Rivard (bass & sintir)
Dean Johnston (drums)...

thanks to Joe for the SBD feed
***Support Bands That Allow Taping/Trading***

shntool output
length expanded size cdr WAVE problems fmt ratio filename
24:57.16 264108476 B --- -- ---xx flac 0.4988 delf2014-01-17s1t01.flac
20:13.47 214083788 B --- -- ---xx flac 0.5373 delf2014-01-17s1t02.flac
16:33.34 175245212 B --- -- ---xx flac 0.5144 delf2014-01-17s1t03.flac
13:15.66 140393276 B --- -- ---xx flac 0.4767 delf2014-01-17s1t04.flac
9:13.14 97582172 B --- -- ---xx flac 0.5053 delf2014-01-17s1t05.flac
10:41.68 113232380 B --- -- ---xx flac 0.5013 delf2014-01-17s1t06.flac
6:36.06 69868556 B --- -- ---xx flac 0.4297 delf2014-01-17s1t07.flac
1:25.26 15055196 B --- -- ---xx flac 0.4335 delf2014-01-17s1t08.flac
1:21.25 14347244 B --- -- ---xx flac 0.4118 delf2014-01-17s2t01.flac
8:32.32 90392108 B --- -- ---xx flac 0.5470 delf2014-01-17s2t02.flac
11:58.37 126742268 B --- -- ---xx flac 0.5560 delf2014-01-17s2t03.flac
9:17.18 98297180 B --- -- ---xx flac 0.4405 delf2014-01-17s2t04.flac
1:33.26 16466396 B --- -- ---xx flac 0.4596 delf2014-01-17s2t05.flac
8:26.58 89394860 B --- -- ---xx flac 0.4494 delf2014-01-17s2t06.flac
0:37.11 6552716 B --- -- ---xx flac 0.4256 delf2014-01-17s2t07.flac
144:43.34 1531761828 B 0.5001 (15 files)

Reviews

There are no reviews yet. Be the first one to write a review.
PEOPLE ALSO FOUND
Club d'Elf
by Club d'Elf
145
0
0
Source: DPA 4011 > Lunatec V3 (Digital) > R44 (24/96)
Club d'Elf
by Club d'Elf
59
0
0
Source: DPA 4011 > V3 Digital + SBD > R44 (24/96)
Club d'Elf
by Club d'Elf
76
0
0
Source: DPA 4011 > V3 Digital > R44 (24/96)
Club d'Elf
by Club d'Elf
30
0
0
Source: DPA 4011 > V3 Digital > DR-680 (24/96)
Club d'Elf
by Club d'Elf
77
0
0
Source: DPA 4011 > V3 Digital + SBD > R44 (24/96)
Club d'Elf
by Club d'Elf
73
0
0
Source: DPA 4011 > V3 Digital + SBD > R44 (24/96)
Club d'Elf
by Club d'Elf
86
0
0
Source: DPA 4011 > V3 Digital + SBD > R44 (24/96)
Club d'Elf
by Club d'Elf
77
0
0
Source: DPA 4011 > V3 Digital + SBD > R44 (24/96)
Club d'Elf
by Club d'Elf
51
0
0
Source: DPA 4011 > Lunatec V3 (Digital) > R44 (24/96)
Club d'Elf
by Club d'Elf
32
0
0
Source: DPA 4011 > V3 Digital > R44 (24/96)